Gotti (2018).720p.H264.italian.english.Ac3-5.1.sub.eng-MIRCrew

  • Category Movies
  • Type HD
  • Language English
  • Total size 2.2 GB
  • Uploaded By robbyrs
  • Downloads 1700
  • Last checked 1 week ago
  • Date uploaded 2 weeks ago
  • Seeders 78
  • Leechers 14

Gotti

CrimeDramaHistory

John Gotti rises to the top of the New York underworld to become the boss of the Gambino crime family. His life takes a tumultuous turn as he faces tragedy, multiple trials and a prison sentence.

Infohash : E652DB4F7139B154CEA1185BFC0033292829579A

Gotti (2018).720p.H264.italian.english.Ac3-5.1.sub.eng-MIRCrew


NO FOUND ONLY ORIGINAL RELEASE



My release is always in double track audio italian and Original audio
for select it use VLC or dvd player home
not use wmp

Gotti (2018)

Quality MIRCrew on HD 720p da 2,2 gb







Titolo originale Gotti
Lingua originale inglese
Paese di produzione Stati Uniti d'America
Anno 2018
Durata 110 min
Rapporto 2,39:1
Genere biografico, gangster, drammatico
Regia Kevin Connolly
Sceneggiatura Lem Dobbs, Leo Rossi



John Travolta: John Gotti
Kelly Preston: Victoria Gotti
Stacy Keach: Aniello Dellacroce
Spencer Lofranco: John Gotti, Jr.
Pruitt Taylor Vince: Angelo Ruggiero
William DeMeo: Sammy Gravano
Chris Mulkey: Frank DeCicco
Leo Rossi: Bartholomew Boriello
Chris Kerson: Wilfred "Willie Boy" Johnson
Victor Gojcaj: Padre Murphy
Sal Rendino: Vincent Gigante



Il film racconta il regno trentennale del boss mafioso italo-statunitense John Gotti e della sua ascesa come capo della Famiglia Gambino, insieme a suo figlio, John Gotti, Jr. e alla sua fedele moglie Victoria.



The film will reveal the relationship of a father who lived and died by the mob code and a son who, while brought up to lead a life of crime, chose to leave that world behind and redeem himself and the Gotti name. Never before has there been such an inside look at the Gotti family and their world of danger, betrayal and redemption









General
Unique ID : 171371390681863364996165341257660582726 (0x80ECEDE61DCFF510B4FBEA71A5234B46)
Complete name : Gotti (2018).720p.h264.ita.eng.sub.eng-MIRCrew\Gotti (2018).720p.h264.ita.eng.sub.eng-MIRCrew.mkv
Format : Matroska
Format version : Version 2
File size : 2.19 GiB
Duration : 1h 49mn
Overall bit rate : 2 853 Kbps
Movie name : MIRCrew
Encoded date : UTC 2019-01-09T21:11:13Z
Writing application : mkvmerge v5.4.0 ('Piper') built on Mar 10 2012 13:34:39
Writing library : Lavf55.12.0

Video
ID : 1
Format : AVC
Format/Info : Advanced Video Codec
Format profile : [email protected]
Format settings, CABAC : Yes
Format settings, ReFrames : 4 frames
Codec ID : V_MPEG4/ISO/AVC
Duration : 1h 49mn
Bit rate : 1 901 Kbps
Nominal bit rate : 2 000 Kbps
Width : 1 280 pixels
Height : 544 pixels
Display aspect ratio : 2.35:1
Frame rate : 23.976 fps
Color space : YUV
Chroma subsampling : 4:2:0
Bit depth : 8 bits
Scan type : Progressive
Bits/(Pixel*Frame) : 0.114
Stream size : 1.46 GiB (67%)
Title : MIRCrew
Writing library : x264 core 142 r2479 dd79a61
Encoding settings : cabac=1 / ref=1 / deblock=1:-1:-1 / analyse=0x1:0x111 / me=hex / subme=2 / psy=1 / psy_rd=1.00:0.15 / mixed_ref=0 / me_range=16 / chroma_me=1 / trellis=0 / 8x8dct=0 / cqm=0 / deadzone=21,11 / fast_pskip=1 / chroma_qp_offset=0 / threads=6 / lookahead_threads=2 / sliced_threads=0 / nr=0 / decimate=1 / interlaced=0 / bluray_compat=0 / constrained_intra=0 / bframes=3 / b_pyramid=2 / b_adapt=1 / b_bias=0 / direct=1 / weightb=1 / open_gop=0 / weightp=1 / keyint=240 / keyint_min=24 / scenecut=40 / intra_refresh=0 / rc_lookahead=10 / rc=abr / mbtree=1 / bitrate=2000 / ratetol=1.0 / qcomp=0.60 / qpmin=0 / qpmax=69 / qpstep=4 / vbv_maxrate=50000 / vbv_bufsize=62500 / nal_hrd=none / filler=0 / ip_ratio=1.40 / aq=1:1.00
Language : Italian
Default : Yes
Forced : No
Color primaries : BT.709-5, BT.1361, IEC 61966-2-4, SMPTE RP177
Transfer characteristics : BT.709-5, BT.1361
Matrix coefficients : BT.709-5, BT.1361, IEC 61966-2-4 709, SMPTE RP177

Audio #1
ID : 2
Format : AC-3
Format/Info : Audio Coding 3
Mode extension : CM (complete main)
Codec ID : A_AC3
Duration : 1h 49mn
Bit rate mode : Constant
Bit rate : 448 Kbps
Channel(s) : 6 channels
Channel positions : Front: L C R, Side: L R, LFE
Sampling rate : 48.0 KHz
Bit depth : 16 bits
Compression mode : Lossy
Delay relative to video : -5ms
Stream size : 352 MiB (16%)
Title : Ita Ac3 5.1
Language : Italian
Default : Yes
Forced : No

Audio #2
ID : 3
Format : AC-3
Format/Info : Audio Coding 3
Mode extension : CM (complete main)
Codec ID : A_AC3
Duration : 1h 49mn
Bit rate mode : Constant
Bit rate : 448 Kbps
Channel(s) : 6 channels
Channel positions : Front: L C R, Side: L R, LFE
Sampling rate : 48.0 KHz
Bit depth : 16 bits
Compression mode : Lossy
Delay relative to video : -5ms
Stream size : 352 MiB (16%)
Title : Eng Ac3 5.1
Language : English
Default : No
Forced : No

Menu
00:00:00.000 : :Chapter 1
00:10:15.198 : :Chapter 2
00:22:21.048 : :Chapter 3
00:30:59.190 : :Chapter 4
00:41:33.240 : :Chapter 5
00:53:08.810 : :Chapter 6
01:02:35.335 : :Chapter 7
01:13:17.726 : :Chapter 8
01:22:58.139 : :Chapter 9
01:34:18.986 : :Chapter 10
01:41:48.394 : :Chapter 11



Files:

Gotti (2018).720p.h264.ita.eng.sub.eng-MIRCrew
  • Gotti (2018).720p.h264.ita.eng.sub.eng-MIRCrew.eng.srt (111.6 KB)
  • Gotti (2018).720p.h264.ita.eng.sub.eng-MIRCrew.mkv (2.2 GB)
  • Gotti (2018).720p.h264.ita.eng.sub.eng-MIRCrew.srt (1.3 KB)

There are currently no comments. Feel free to leave one :)

Code:

  • udp://tracker.coppersurfer.tk:6969/announce
  • udp://tracker.torrent.eu.org:451/announce
  • udp://tracker.pirateparty.gr:6969/announce
  • udp://tracker.opentrackr.org:1337/announce
  • udp://tracker.leechers-paradise.org:6969/announce
  • udp://tracker.eddie4.nl:6969/announce
  • udp://shadowshq.yi.org:6969/announce
  • udp://shadowshq.eddie4.nl:6969/announce
  • udp://inferno.demonoid.pw:3391/announce
  • udp://eddie4.nl:6969/announce
  • udp://9.rarbg.to:2730/announce
  • udp://9.rarbg.com:2710/announce
  • udp://9.rarbg.me:2780/announce
  • udp://62.138.0.158:6969/announce
  • udp://151.80.120.114:2710/announce
Sitemap[HorribleSubs] Black Clover - 71 (1080p) | Spartacus Ursu | Santa Clarita Diet