Between.Worlds.2018.720p.BluRay.X264.ENG.SUB.LLG

  • Category Movies
  • Type HD
  • Language English
  • Total size 1.3 GB
  • Uploaded By LifeLongg
  • Downloads 264
  • Last checked 56 minutes ago
  • Date uploaded 1 day ago
  • Seeders 52
  • Leechers 34

Between Worlds

ActionMysteryThriller

The story follows Joe (Cage), a down-on-his-luck truck driver haunted by the memory of his deceased wife and child. He meets Julie (Potente), a spiritually gifted woman who enlists Joe in a desperate effort to find the lost soul of her comatose daughter, Billie (Mitchell). But the spirit of Joe's dead wife Mary proves stronger, possessing the young woman's body and determined to settle her unfinished business with the living.

Infohash : 896BEBCCCC8186EEA760063F1BEFECEDC279A629

Quote:




******************************Thumbnail:**********************



******************************Screenshots:********************

Screenshot 1

Screenshot 2

Screenshot 3

Screenshot 4

Screenshot 5

Screenshot 6

Screenshot 7

Screenshot 8

Screenshot 9

Screenshot 0


******************************************************

18+.Between.Worlds.2018.720p.BluRay.X264.ENG.SUB.LLG.mp4
Format : MPEG-4
Format profile : Base Media
Codec ID : isom (isom/iso2/avc1/mp41)
File size : 1.26 GiB
Duration : 1 h 30 min
Overall bit rate mode : Variable
Overall bit rate : 1 997 kb/s


Video
ID : 1
Format : AVC
Format/Info : Advanced Video Codec
Format profile : [email protected]
Format settings : CABAC / 1 Ref Frames
Format settings, CABAC : Yes
Format settings, RefFrames : 1 frame
Codec ID : avc1
Codec ID/Info : Advanced Video Coding
Duration : 1 h 30 min
Bit rate mode : Variable
Bit rate : 1 481 kb/s
Maximum bit rate : 4 500 kb/s
Width : 1 280 pixels
Height : 690 pixels
Display aspect ratio : 1.85:1
Frame rate mode : Constant
Frame rate : 23.976 (23976/1000) FPS
Color space : YUV
Chroma subsampling : 4:2:0
Bit depth : 8 bits
Scan type : Progressive
Bits/(Pixel*Frame) : 0.070
Stream size : 956 MiB (74%)
Language : English


Audio
ID : 2
Format : AC-3
Format/Info : Audio Coding 3
Commercial name : Dolby Digital
Codec ID : ac-3
Duration : 1 h 30 min
Bit rate mode : Constant
Bit rate : 512 kb/s
Channel(s) : 6 channels
Channel layout : L R C LFE Ls Rs
Sampling rate : 48.0 kHz
Frame rate : 31.250 FPS (1536 SPF)
Bit depth : 16 bits
Compression mode : Lossy
Stream size : 331 MiB (26%)
Service kind : Complete Main
Default : Yes
Alternate group : 1



********************************************************


Files:

18+.Between.Worlds.2018.720p.BluRay.X264.ENG.SUB.LLG
  • SAMPLE.ts (39.0 MB)
  • 18+.Between.Worlds.2018.720p.BluRay.X264.ENG.SUB.LLG.mp4 (1.3 GB)

There are currently no comments. Feel free to leave one :)

Code:

  • udp://tracker.openbittorrent.com:80/announce
  • udp://tracker.opentrackr.org:1337/announce
  • UDP://TRACKER.LEECHERS-PARADISE.ORG:6969/ANNOUNCE
SitemapZoe Boyle | Saisons en cours VF | Off Limits