An.Affair.to.Die.For.2019.HDRip.AC3.X264.LLG

  • Category Movies
  • Type h.264/x264
  • Language English
  • Total size 854.7 MB
  • Uploaded By LifeLongg
  • Downloads 130
  • Last checked 18 minutes ago
  • Date uploaded 21 hours ago
  • Seeders 37
  • Leechers 27

Infohash : 2325578D4C222075F6B0EF0AFED64211B51C2425

Quote:




******************************Thumbnail:**********************



******************************Screenshots:********************

Screenshot 1

Screenshot 2

Screenshot 3

Screenshot 4

Screenshot 5

Screenshot 6

Screenshot 7

Screenshot 8

Screenshot 9

Screenshot 0


******************************************************

18+.An.Affair.to.Die.For.2019.HDRip.AC3.X264.LLG.mp4
Format : MPEG-4
Format profile : Base Media
Codec ID : isom (isom/iso2/avc1/mp41)
File size : 837 MiB
Duration : 1 h 22 min
Overall bit rate mode : Variable
Overall bit rate : 1 414 kb/s


Video
ID : 1
Format : AVC
Format/Info : Advanced Video Codec
Format profile : [email protected]
Format settings : CABAC / 1 Ref Frames
Format settings, CABAC : Yes
Format settings, RefFrames : 1 frame
Codec ID : avc1
Codec ID/Info : Advanced Video Coding
Duration : 1 h 22 min
Bit rate mode : Variable
Bit rate : 1 027 kb/s
Maximum bit rate : 3 600 kb/s
Width : 720 pixels
Height : 304 pixels
Display aspect ratio : 2.35:1
Frame rate mode : Constant
Frame rate : 23.976 (23976/1000) FPS
Color space : YUV
Chroma subsampling : 4:2:0
Bit depth : 8 bits
Scan type : Progressive
Bits/(Pixel*Frame) : 0.196
Stream size : 607 MiB (73%)


Audio
ID : 2
Format : AC-3
Format/Info : Audio Coding 3
Commercial name : Dolby Digital
Codec ID : ac-3
Duration : 1 h 22 min
Bit rate mode : Constant
Bit rate : 384 kb/s
Channel(s) : 6 channels
Channel layout : L R C LFE Ls Rs
Sampling rate : 48.0 kHz
Frame rate : 31.250 FPS (1536 SPF)
Bit depth : 16 bits
Compression mode : Lossy
Stream size : 227 MiB (27%)
Language : English
Service kind : Complete Main
Default : Yes
Alternate group : 1


********************************************************


Files:

18+.An.Affair.to.Die.For.2019.HDRip.AC3.X264.LLG
  • SAMPLE.ts (17.8 MB)
  • 18+.An.Affair.to.Die.For.2019.HDRip.AC3.X264.LLG.mp4 (836.9 MB)

There are currently no comments. Feel free to leave one :)

Code:

  • udp://tracker.openbittorrent.com:80/announce
  • udp://tracker.opentrackr.org:1337/announce
  • UDP://TRACKER.LEECHERS-PARADISE.ORG:6969/ANNOUNCE
SitemapDominic West | Rowan Atkinson | Jamie Lee