The.Suspect.2013.720p.BRRip.x264-Fastbet99

  • Category Movies
  • Type Mp4
  • Language English
  • Total size 1.2 GB
  • Uploaded By Fastbet99
  • Downloads 258
  • Last checked 59 minutes ago
  • Date uploaded 5 years ago
  • Seeders 0
  • Leechers 1

The Suspect

Thriller

Two African American social scientists pose as bank robbers in an effort to understand the racial dynamics of small-town law enforcement. However, their experiment takes an unplanned turn.

Infohash : E104AEBEB5B1F661507E59006E9CD8D88A774C39


The Suspect (2013)

IMDB Info : http://www.imdb.com/title/tt2073121/

Source : SONiDO (Thanks)
Complete name : The.Suspect.2013.720p.BRRip.x264-Fastbet99.mp4
Format : MPEG-4
Format profile : Base Media
Codec ID : isom
File size : 1.17 GiB
Duration : 1h 37mn
Overall bit rate mode : Variable
Overall bit rate : 1 714 Kbps

Video
ID : 1
Format : AVC
Format/Info : Advanced Video Codec
Format profile : [email protected]
Format settings, CABAC : Yes
Format settings, ReFrames : 4 frames
Codec ID : avc1
Codec ID/Info : Advanced Video Coding
Duration : 1h 37mn
Bit rate : 1 617 Kbps
Maximum bit rate : 10.7 Mbps
Width : 1 280 pixels
Height : 544 pixels
Display aspect ratio : 2.35:1
Frame rate mode : Constant
Frame rate : 23.976 fps
Color space : YUV
Chroma subsampling : 4:2:0
Bit depth : 8 bits
Scan type : Progressive
Bits/(Pixel*Frame) : 0.097
Stream size : 1.10 GiB (94%)
Writing library : x264 core 133 r2334 a3ac64b

Audio
ID : 2
Format : AAC
Format/Info : Advanced Audio Codec
Format profile : LC
Codec ID : 40
Duration : 1h 37mn
Bit rate mode : Variable
Bit rate : 96.0 Kbps
Maximum bit rate : 111 Kbps
Channel(s) : 2 channels
Channel positions : Front: L R
Sampling rate : 48.0 KHz
Compression mode : Lossy
Stream size : 67.1 MiB (6%)
Language : English
Encoder : Fastbet99

Files:

  • NFO.txt (3.3 KB)
  • read me.txt (0.1 KB)
  • The.Suspect.2013.720p.BRRip.x264-Fastbet99.mp4 (1.2 GB)
  • The.Suspect.2013.720p.BRRip.x264-Fastbet99.mp4.jpg (121.4 KB)

There are currently no comments. Feel free to leave one :)

Code:

  • udp://tracker.openbittorrent.com:80/announce
  • udp://tracker.publicbt.com:80/announce
  • udp://open.demonii.com:1337/announce
  • udp://tracker.coppersurfer.tk:6969/announce
  • http://p2pdl.com:2710/announce
  • udp://tracker.yify-torrents.com/announce
  • udp://12.rarbg.me:80/announce
  • udp://tracker.publicbt.com:80
SitemapNext › | £0 Shipping | Descargar